#TITLE:Electric Shock;
#SUBTITLE:Expi3nze;
#ARTIST:F(x);
#TITLETRANSLIT:;
#SUBTITLETRANSLIT:;
#ARTISTTRANSLIT:;
#CREDIT:;
#BANNER:bn.png;
#BACKGROUND:bg.png;
#LYRICSPATH:;
#CDTITLE:cdtitle.png;
#MUSIC:Electric Shock.mp3;
#OFFSET:-0.140;
#SAMPLESTART:100.000;
#SAMPLELENGTH:12.000;
#SELECTABLE:YES;
#BPMS:0.000=125.000,53.000=125.000,53.750=62.500,54.000=125.000,57.000=125.000,57.750=62.500,58.000=125.000,61.250=62.500,61.500=125.000,65.000=62.500,65.250=125.000,66.000=125.000,68.000=125.000,68.750=62.500,69.000=125.000,76.500=62.500,76.750=125.000,115.000=250.000,116.000=125.000,227.000=250.000,229.000=125.000;
#STOPS:;
#BGCHANGES:;
// cache tags:
#FIRSTBEAT:5.000;
#LASTBEAT:277.000;
#SONGFILENAME:Songs/Expi3nze 4th Collection/Electric Shock f(x)/Electric Shock.sm;
#HASMUSIC:1;
#HASBANNER:1;
#MUSICLENGTH:133.619;
// end cache tags

//---------------dance-single - ----------------
#NOTES:
     dance-single:
     :
     Hard:
     14:
     0.925,0.907,1.000,0.539,0.501,580.000,149.000,72.000,0.000,87.000:
0000
0000
0000
0000
,
0000
0000
0000
0000
0100
0000
0000
0100
0000
0000
0100
0000
0000
0000
0001
0000
,
1000
0000
0010
0000
0010
0000
0000
0100
0000
0000
0100
0000
0000
0000
0010
0000
,
1000
0000
0010
0000
1000
0000
0010
0001
0010
0000
0010
0000
0000
0000
1000
0000
,
1000
0000
0010
0000
0001
0000
0100
1000
0100
0000
0100
0000
0000
0000
0000
0000
,
0000
0000
0000
0000
0010
0000
0000
0100
0001
0000
0111
0000
0010
0000
1000
0000
,
1110
1101
0010
0100
0001
0111
0000
0010
,
0010
1110
0100
0000
0010
0111
0000
1011
,
1101
1101
1000
0001
1001
1010
1000
0010
,
0111
0111
0010
1000
1000
1110
1101
1110
,
1110
1010
1110
0010
1000
1101
0001
0100
,
1110
1011
1011
0100
0001
0111
0001
0100
,
1101
0000
1101
0000
1001
0000
0001
0000
1000
0000
0011
0000
1000
0000
1000
0010
,
1100
0000
0001
0000
2000
0000
0000
3010
0000
0111
0000
0000
0000
1101
0000
1101
,
0000
1101
0000
2000
0000
0000
3010
0000
0111
0000
0111
0000
1000
0100
0010
0000
,
1110
0000
2000
0000
0000
3010
0000
1110
0000
0000
0000
0001
0000
1011
0000
1001
,
0000
2001
0000
0000
3010
0000
0111
0000
0000
0000
1101
0000
1101
0000
1101
0000
,
0002
0000
0000
0103
0000
1101
0000
0000
0000
0101
0000
0101
0000
0111
0000
0111
,
0000
0000
1000
1000
0000
1101
0000
1000
0010
1100
0000
0101
0000
0101
0000
0200
,
0000
0310
0111
0000
1101
1101
1101
2011
,
0000
0010
3201
0000
0012
0000
0303
0000
0211
0000
0321
0000
0000
0000
2030
0000
,
0010
0001
0010
0000
0001
0000
0100
0000
0001
0010
0100
0000
0001
0000
0100
0000
,
0001
0010
0100
0000
0001
0000
0100
0000
0100
0010
0100
0001
0010
0000
0100
0000
,
0001
0010
0100
0000
0001
0000
0100
0000
0001
0010
0100
0000
0001
0000
0100
0000
,
0100
0010
0100
0000
0001
0000
0100
0000
0001
0010
0100
0000
0010
0000
3010
0000
,
1000
1000
0011
0000
1000
0010
1000
0000
0001
0100
1001
0000
0001
0010
0100
0000
,
1000
0010
1100
0000
1000
0010
0100
0000
0010
0001
1100
0000
0010
0000
2010
0000
,
0100
0010
0001
0000
0010
0000
0010
0000
0200
0000
0020
0300
0200
0000
0331
0000
,
0000
0200
0002
0303
0101
0101
0000
0000
,
3111
0000
0000
0000
0111
0000
1000
1000
0100
0000
1000
0010
1100
0000
1002
0000
,
1020
0000
0033
0000
1110
0000
0001
0010
0100
0000
0001
0100
0011
0000
2001
0000
,
0201
0000
3300
0000
0111
0000
1000
0100
0010
0000
1000
0010
1100
0000
1020
0000
,
1030
0020
0000
0030
1120
0000
1030
0000
0010
0000
1000
0010
1100
0010
0001
0000
,
1110
0000
1000
0100
0010
0000
1000
1000
0100
0000
1000
0010
1100
0000
1002
0000
,
1020
0000
0033
0000
1110
0000
0001
0010
0100
0000
0001
0100
0011
0000
2001
0000
,
0201
0000
3300
0000
0111
0000
1000
0100
0010
0000
1000
0010
1100
0000
1020
0000
,
1030
0020
0000
0030
1120
0000
1030
0000
0010
0000
0100
0010
0100
1000
0010
0000
,
2111
0000
0000
0010
0000
0010
0010
0100
,
0001
0000
0010
0001
0010
0001
0010
0001
0010
0001
0010
0001
0010
0000
0001
0000
,
0100
0000
0010
0001
0010
0001
0010
0001
0010
0000
0001
0000
0100
0000
0010
0000
,
0010
0000
0000
0010
0000
0000
0010
0000
0100
0000
0001
0000
0010
0000
0000
0000
,
3010
0000
0000
0010
0000
0000
0010
0000
0000
0000
1000
0000
0010
0000
0100
0000
,
0100
0000
0000
0001
0000
0000
0100
0000
0000
0000
0010
0000
0010
0000
1000
0000
,
0001
0000
0000
0100
0000
0000
0100
0000
0000
0000
0001
0000
0010
0000
1000
0000
,
0001
0000
0000
0010
0000
0000
0010
0000
0000
0000
1000
0000
1000
0000
0010
0000
,
1010
0000
0000
0000
0011
0000
1001
0000
1100
0000
0001
0100
0011
0000
1000
0100
,
1000
0000
1010
0000
1010
0000
0101
0000
0101
0000
0100
0000
0100
1010
0100
0000
,
0001
0000
1000
0000
1010
0000
1010
0000
0010
0000
1000
0000
0010
0000
1000
0010
,
1100
0000
0001
0010
0100
0000
0001
0010
0100
0000
0010
0000
0010
0000
0010
0000
,
2011
0000
0010
0001
0010
0000
0001
0000
0100
0000
0001
0010
0100
0000
0001
0000
,
0100
0000
0001
0010
0100
0000
0001
0000
0100
0000
0100
0010
0100
0001
0010
0000
,
0100
0000
0001
0010
0100
0000
0001
0000
0100
0000
0001
0010
0100
0000
0001
0000
,
0100
0000
0100
0010
0100
0000
0001
0000
0100
0000
0001
0010
0100
0000
0010
0000
,
3010
0000
1000
1000
0011
0000
1000
0010
1000
0000
0001
0100
1001
0000
0001
0010
,
0100
0000
1000
0010
1100
0000
1000
0010
0100
0000
0010
0001
1100
0000
0010
0000
,
2010
0000
0100
0010
0001
0000
0010
0000
0010
0000
0200
0000
0020
0300
0200
0000
,
0331
0000
0200
0002
0303
0101
0101
0000
,
0000
0000
0000
0000
3111
0000
0000
0000
0111
0000
1000
1000
0100
0000
1000
0010
,
1100
0000
1002
0000
1020
0000
0033
0000
1110
0000
0001
0010
0100
0000
0001
0100
,
0011
0000
2001
0000
0201
0000
3300
0000
0111
0000
1000
0100
0010
0000
1000
0010
,
1100
0000
1020
0000
0030
0020
0000
0030
0020
0000
2030
0000
0020
0000
3031
0000
,
0100
0010
0100
1000
0011
0000
0010
0000
0010
0000
1000
1000
0100
0000
1000
0010
,
1100
0000
1020
0000
1030
0020
0000
0030
1020
0000
1030
1000
0010
0000
1000
0010
,
1001
0000
1020
0000
1030
0020
0000
0030
1020
0000
1030
0100
0001
0000
1000
0010
,
1010
0000
1020
0000
1030
0020
0000
0030
1120
0000
1030
0000
0010
0000
0100
0010
,
0100
1000
0010
0000
0111
0000
0010
0000
0010
0000
1000
1000
0100
0000
1000
0010
,
1100
0000
1020
0000
1030
0020
0000
0030
1020
0000
1030
1000
0010
0000
1000
0010
,
1001
0000
1020
0000
1030
0020
0000
0030
1020
0000
1030
0100
0001
0000
1000
0010
,
1100
0000
1020
0000
0030
0020
0000
0030
0020
0000
2030
0000
0200
0000
3002
0000
,
2323
3030
0000
0000
,
0000
0000
0000
0000
,
0000
0000
0000
0000
;
